如何查找任何视频文件的每秒帧数?

Modified on: Sat, 09 Jun 2018 20:09:53 +0800

有没有简单的方法可以在ubuntu中找到视频的fps?在Windows中,我使用Gspot查找有关视频文件的所有信息。但在ubuntu中,我发现很难找到这些基本信息。任何帮助表示赞赏。

作者:Vivek

最佳答案

这将告诉你帧速率是否不是可变帧率:

ffmpeg -i filename

文件名遮挡的示例输出:

Input #0, matroska,webm, from 'somerandom.mkv':
  Duration: 01:16:10.90, start: 0.000000, bitrate: N/A
    Stream #0.0: Video: h264 (High), yuv420p, 720x344 [PAR 1:1 DAR 90:43], 25 fps, 25 tbr, 1k tbn, 50 tbc (default)
    Stream #0.1: Audio: aac, 48000 Hz, stereo, s16 (default)
ffmpeg -i filename 2>&1 | sed -n "s/.*, \(.*\) fp.*/\1/p"

有人编辑了一个不按我想要的方式工作的人。它被引用这里
附加编辑...如果你想要tbr值这个sed行工作

sed -n "s/.*, \(.*\) tbr.*/\1/p"

相关问答

添加新评论